Последний альянс / The Final Alliance (Марио Ди Лео / Mario Di Leo) [1990, США, ЮАР, Боевик, HDTVRip] DVO

Ответить на тему
Статистика раздачи
Размер:  1,37 GB   |    Зарегистрирован:  2 года 10 месяцев   |    Скачан:  0 раз

Полного источника не было: Никогда

 
   
 
 
Автор Сообщение

star21 ®

Пол: Женский

Стаж: 2 года 11 месяцев

Сообщений: 552946

Откуда: Екатеринбург

Создавать темы 01-Дек-2015 13:55

[Цитировать]

Последний альянс / The Final Alliance
Страна: США, ЮАР
Жанр: Боевик
Год выпуска: 1990
Продолжительность: 01:29:35
Перевод: Профессиональный (двухголосый закадровый)
Cубтитры: нет
Режиссер: Марио Ди Лео / Mario Di Leo
В ролях: Дэвид Хассельхофф , Бо Хопкинс , Джон Сэксон , Джини Мур , Лен Спэрроухок , Карл Джонсон , Фрэнк Нотаро, Sylvano Architto , Том Хоскинс , Стид Тейлор
Описание: Вооруженная до зубов мотобанда терроризирует техасский городок. Байкеры убивают, насилуют, грабят. Но тут появляется Уилл Колтон, парень тертый и бывалый, настоящий герой. Когда-то главари банды убили его родителей, и теперь он вернулся, чтобы отомстить.
Сэмпл: https://www.sendspace.com/file/mfvw4d
Качество видео: HDTVRip
Формат видео: AVI
Видео: XviD MPEG-4 , 720x384 (1.85:1) , 25.000 fps , 1 984 Kbps
Аудио: AC3 , 48 kHz , 192.00 kbps avg , 2/0 (L,R) ch

MediaInfo

Complete name Последний альянс 1990.avi
Format : AVI
Format/Info : Audio Video Interleave
File size : 1.37 GiB
Duration : 1h 29mn
Overall bit rate : 2 186 Kbps
Writing application : VirtualDubMod 1.5.10.3 | www.virtualdub-fr.org || (build 2550/release)
Writing library : VirtualDub build 35491/release
Video
ID : 0
Format : MPEG-4 Visual
Format profile : Advanced Simple@L5
Format settings, BVOP : 1
Format settings, QPel : No
Format settings, GMC : No warppoints
Format settings, Matrix : Default (MPEG)
Codec ID : XVID
Codec ID/Hint : XviD
Duration : 1h 29mn
Bit rate : 1 984 Kbps
Width : 720 pixels
Height : 384 pixels
Display aspect ratio : 1.85:1
Frame rate : 25.000 fps
Color space : YUV
Chroma subsampling : 4:2:0
Bit depth : 8 bits
Scan type : Progressive
Compression mode : Lossy
Bits/(Pixel*Frame) : 0.287
Stream size : 1.24 GiB (91%)
Writing library : XviD 1.2.1 (UTC 2008-12-04)
Audio
ID : 1
Format : AC-3
Format/Info : Audio Coding 3
Mode extension : CM (complete main)
Format settings, Endianness : Big
Codec ID : 2000
Duration : 1h 29mn
Bit rate mode : Constant
Bit rate : 192 Kbps
Channel(s) : 2 channels
Channel positions : Front: L R
Sampling rate : 48.0 KHz
Compression mode : Lossy
Stream size : 123 MiB (9%)
Alignment : Aligned on interleaves
Interleave, duration : 40 ms (1.00 video frame)
Interleave, preload duratio : 512 ms

Скриншоты

Для скачки контента: [Установить программу-клиент] и кликнуть по - СкачатьБезопасность: клиент проверен АВ Касперского

[privalsystems.ru].t4325.torrent 
Торрент: Зарегистрирован [ 2015-12-01 13:55 ] · 27BD58785CF463F7C80D01E300F9D95339E48A11

Скачать .torrent

Скачать

14 KB

Статус: проверено
Скачан: 0 раз
Размер: 1,37 GB
terms.php
[Профиль] [ЛС]
Показать сообщения:    
Ответить на тему

Текущее время: 17-Окт 06:27

Часовой пояс: UTC ± 0



Вы не можете начинать темы
Вы не можете отвечать на сообщения
Вы не можете редактировать свои сообщения
Вы не можете удалять свои сообщения
Вы не можете голосовать в опросах
Вы не можете прикреплять файлы к сообщениям
Вы можете скачивать файлы