Пингвиниум мобиле (Елена Нестерова) [2013, Россия, мультфильм, WEBRip]

Ответить на тему
Статистика раздачи
Размер:  95 MB   |    Зарегистрирован:  9 месяцев 4 дня   |    Скачан:  0 раз

Полного источника не было: Никогда

 
   
 
 
Автор Сообщение

star21 ®

Пол: Женский

Стаж: 2 года 11 месяцев

Сообщений: 552946

Откуда: Екатеринбург

Создавать темы 12-Янв-2018 12:55

[Цитировать]

Пингвиниум мобиле Страна: Россия
Жанр: мультфильм
Продолжительность: 00:06:10
Год выпуска: 2013Режиссёр: Елена НестероваОписание: История любви пингвина и пингвинихи. Он любит самолёты, а ей нравятся пароходы. Чтобы обратить на себя внимание друг друга, они смастерили себе по забавному костюму: пингвин стал пароходом, а пингвиниха - самолётом.Качество: WEBRip
Формат: AVI
Видео: 1943 kbps, 720х400 (16:9), 25.000 fps, MPEG-4 Visual (XviD)
Аудио: 192 kbps, 44.1 kHz, 2 channels, MPEG Audio (MP3)
Субтитры: отсутствуют

Подробные технические данные

GeneralComplete name                            : Пингвиниум мобиле (2013).aviFormat                                   : AVIFormat/Info                              : Audio Video InterleaveFile size                                : 94.9 MiBDuration                                 : 6mn 10sOverall bit rate                         : 2 147 KbpsWriting application                      : MEncoder SVN-r30881(20100311-gcc4.3.3)Writing library                          : MPlayerVideoID                                       : 0Format                                   : MPEG-4 VisualFormat profile                           : Advanced Simple@L5Format settings, BVOP                    : 2Format settings, QPel                    : NoFormat settings, GMC                     : No warppointsFormat settings, Matrix                  : Default (H.263)Codec ID                                 : XVIDCodec ID/Hint                            : XviDDuration                                 : 6mn 10sBit rate                                 : 1 943 KbpsWidth                                    : 720 pixelsHeight                                   : 400 pixelsDisplay aspect ratio                     : 16:9Original display aspect ratio            : 16:9Frame rate                               : 25.000 fpsColor space                              : YUVChroma subsampling                       : 4:2:0Bit depth                                : 8 bitsScan type                                : ProgressiveCompression mode                         : LossyBits/(Pixel*Frame)                       : 0.270Stream size                              : 85.8 MiB (90%)Writing library                          : XviD 1.2.1 (UTC 2008-12-04)AudioID                                       : 1Format                                   : MPEG AudioFormat version                           : Version 1Format profile                           : Layer 3Mode                                     : Joint stereoMode extension                           : MS StereoCodec ID                                 : 55Codec ID/Hint                            : MP3Duration                                 : 6mn 10sBit rate mode                            : ConstantBit rate                                 : 192 KbpsChannel(s)                               : 2 channelsSampling rate                            : 44.1 KHzCompression mode                         : LossyDelay relative to video                  : 40msStream size                              : 8.48 MiB (9%)Alignment                                : Aligned on interleavesInterleave, duration                     : 26 ms (0.65 video frame)Interleave, preload duration             : 522 msWriting library                          : LAME3.98

Скриншоты

Для скачки контента: [Установить программу-клиент] и кликнуть по - СкачатьБезопасность: клиент проверен АВ Касперского

[privalsystems.ru].t493170.torrent 
Торрент: Зарегистрирован [ 2018-01-12 12:55 ] · AC724CD8B254AE6C2F5F0A0323AC9CA76E9DBBDC

Скачать .torrent

Скачать

15 KB

Статус: проверено
Скачан: 0 раз
Размер: 95 MB
terms.php
[Профиль] [ЛС]
Показать сообщения:    
Ответить на тему

Текущее время: 17-Окт 06:25

Часовой пояс: UTC ± 0



Вы не можете начинать темы
Вы не можете отвечать на сообщения
Вы не можете редактировать свои сообщения
Вы не можете удалять свои сообщения
Вы не можете голосовать в опросах
Вы не можете прикреплять файлы к сообщениям
Вы можете скачивать файлы