Необыкновенный Огонёк-2018.01.12 [2018, Pop, HDTV, 1080i]

Ответить на тему
Статистика раздачи
Размер:  8,6 GB   |    Зарегистрирован:  9 месяцев 4 дня   |    Скачан:  0 раз
Сидов:  1  [  0 KB/s  ]   Подробная статистика пиров
 
   
 
 
Автор Сообщение

star21 ®

Пол: Женский

Стаж: 2 года 11 месяцев

Сообщений: 552946

Откуда: Екатеринбург

Создавать темы 13-Янв-2018 00:05

[Цитировать]

Необыкновенный Огонёк-2018.01.12 Жанр: Pop
Продолжительность: 01:37:33
Год выпуска: 2018Описание: "Голубой Огонёк" многие годы является неотъемлемым атрибутом празднования Нового года. Но авторы авантюрного и не похожего на все остальные новогоднего шоу "Необыкновенный Огонёк" решительно ломают стереотипы!
Шоу "Необыкновенный Огонёк-2018" обещает быть ярким и насыщенным.
В этот вечер кумиры публики предстанут перед своими поклонниками в самых неожиданных амплуа. Несмотря на то, что полный список музыкальных номеров и участников держится в секрете, с уверенностью можно сказать, одно: подобного вы не увидите больше нигде!
На этом концерте возникнут потрясающие дуэты: звезды российской музыки, которых трудно представить вместе, вдруг запоют дуэтами. Слова в знакомых песнях поменяются местами. Декорации удивят своими внезапными метаморфозами. Зрители смогут увидеть происходящее не только на сцене, но и за кулисами. А ведущие над всем этим заставят смеяться, чтобы окончательно запутать публику.
В "Необыкновенном Огоньке-2018" примут участие: Николай Басков и Валерия, Кристина Орбакайте и Петр Дранга, Сергей Лазарев и Дима Билан, Вера Брежнева и Светлана Лобода, Надежда Кадышева и Руслан Алехно и многие другие.Треклист:
01. Валерия, Николай Басков – Сохранив любовь
02. Кристина Орбакайте, Петр Дранга – Спичка
03. Дима Билан, Сергей Лазарев – Прости меня
04. Юрий Антов, Анастасия Макеева – Лунная дорожка
05. Вера Брежнева, LOBODA – Случайная
06. Елена Ваенга, Ачи – Ре, ля
07. Надежда Кадышева и Руслан Алехно – Снег летит
08. Ирина Аллегрова, Игорь Крутой – Столик на двоих
09. Лев Лещенко, Анна Семенович, Юлия Началова, Инна Маликова – Синий иней
10. Лариса Долина, Глеб Матвейчук – Незнакомые
11. Александр Буйнов, Стас Пьеха, Методие Бужор, Сосо Павлиашвили – Арго
12. MBAND, ВИА ГРА – Разведи огонь
13. Emin, Владимир Кузьмин – Сибирские морозы
14. Денис Клявер, Глюкоза – Танцуй, Россия
15. Владимир Пресняков, Наталья Подольская – Белый снег
16. Марина Девятова, Алексей Воробьев – Песня про зайцев
17. Александр Розенбацм и Сопрано Турецкого – На плантациях любви
18. Нюша и Градусы – Хочется
19. Надежда Бабкина, Евгений Гор – Почти как Боги
20. Анастасия Стоцкая, Хор Турецкого – Песня Снегурочки и Деда Мороза
21. Уматуран и Город 312- А знаешь все еще будет
22. Академический Ансамбль Песни и Пляски войск нацгвардии РФ – В лесу родилась елочкаКачество: HDTV
Разрешение видео/развертка: 1080i
Контейнер: TS
Видео кодек: H.264
Аудио кодек: MP2
Видео: H264; 1920x1080 (16:9); 25.000 fps; ~ 11.8 Mb/s
Аудио: MP2, 2 channels, 48000Hz, 192 Кбит/сек

Отчёт MediaInfo / BDInfo

GeneralID                             : 1 (0x1)Complete name                  : E:\Необыкновенный Огонёк-2018.01.12.tsFormat                         : MPEG-TSFile size                      : 8.60 GiBDuration                       : 1 h 37 minOverall bit rate mode          : VariableOverall bit rate               : 12.6 Mb/sVideoID                             : 2292 (0x8F4)Menu ID                        : 2291 (0x8F3)Format                         : AVCFormat/Info                    : Advanced Video CodecFormat profile                 : High@L4Format settings, CABAC         : YesFormat settings, ReFrames      : 4 framesCodec ID                       : 27Duration                       : 1 h 37 minBit rate                       : 11.8 Mb/sWidth                          : 1 920 pixelsHeight                         : 1 080 pixelsDisplay aspect ratio           : 16:9Frame rate                     : 25.000 FPSStandard                       : ComponentColor space                    : YUVChroma subsampling             : 4:2:0Bit depth                      : 8 bitsScan type                      : InterlacedScan type, store method        : Separated fieldsScan order                     : Top Field FirstBits/(Pixel*Frame)             : 0.228Stream size                    : 8.04 GiB (94%)Color range                    : LimitedColor primaries                : BT.709Transfer characteristics       : BT.709Matrix coefficients            : BT.709AudioID                             : 2295 (0x8F7)Menu ID                        : 2291 (0x8F3)Format                         : MPEG AudioFormat version                 : Version 1Format profile                 : Layer 2Codec ID                       : 3Duration                       : 1 h 37 minBit rate mode                  : ConstantBit rate                       : 192 kb/sChannel(s)                     : 2 channelsSampling rate                  : 48.0 kHzCompression mode               : LossyStream size                    : 134 MiB (2%)Language                       : Russian

Скриншоты

Для скачки контента: [Установить программу-клиент] и кликнуть по - СкачатьБезопасность: клиент проверен АВ Касперского

[privalsystems.ru].t493348.torrent 
Торрент: Зарегистрирован [ 2018-01-13 00:05 ] · 225952E643529D10B81729C12E16AF618F4494EE

Скачать .torrent

Скачать

43 KB

Статус: проверено
Скачан: 0 раз
Размер: 8,6 GB
terms.php
[Профиль] [ЛС]
Показать сообщения:    
Ответить на тему

Текущее время: 17-Окт 06:26

Часовой пояс: UTC ± 0



Вы не можете начинать темы
Вы не можете отвечать на сообщения
Вы не можете редактировать свои сообщения
Вы не можете удалять свои сообщения
Вы не можете голосовать в опросах
Вы не можете прикреплять файлы к сообщениям
Вы можете скачивать файлы