(Eurodance/Euro House) [CD] Magic Motion - The Magic Ride (Japan) - 1998, Flac (Image+.cue) lossless

Ответить на тему
Статистика раздачи
Размер:  409 MB   |    Зарегистрирован:  9 месяцев 3 дня   |    Скачан:  0 раз

Полного источника не было: 8 месяцев 20 дней

 
   
 
 
Автор Сообщение

star21 ®

Пол: Женский

Стаж: 2 года 11 месяцев

Сообщений: 552946

Откуда: Екатеринбург

Создавать темы 13-Янв-2018 19:30

[Цитировать]

Magic Motion - The Magic Ride (Japanese edition) Жанр: Eurodance,Euro-House
Лейбл: W.Records, Sweden
Изготовитель: Disc Center CD., Ltd.
Дистрибьютор: Japan Publications Trading Co., Ltd.
Каталог: JPCL-2009
Страна/Сделано: Japan
Год издания: 1998
Тип рипа: Image+.Cue
Аудио кодек: FLAC [*.flac]
Метод сжатия аудио: lossless
Продолжительность: 46:04
Источник (релизёр): Рипы с собственных CD (RoxMan)
Наличие сканов: ДаТреклист:01. The Magic Ride - Introduction (1:13)
02. Wonderland (3:32)
03. Show Me Heaven (3:29)
04. Lift You Up (3:21)
05. Tell Me Why (3:29)
06. Take A Ride (3:26)
07. Far Away (3:22)
08. Stay With Me (3:10)
09. Calling For U (3:35)
10. Don't Wanna Loose U (3:28)
11. Move My World (3:20)
12. Show Me Heaven (C.Crash Remix) (5:31)
13. Tell Me Why (Future Tone's Club Mix) (5:10)

EAC-Log, Tau Analyzer

Exact Audio Copy V1.0 beta 3 from 29. August 2011EAC extraction logfile from 13. January 2018, 12:44Magic Motion / The Magic RideUsed drive  : TSSTcorpDVD-ROM SH-D163C   Adapter: 2  ID: 1Read mode               : SecureUtilize accurate stream : YesDefeat audio cache      : YesMake use of C2 pointers : NoRead offset correction                      : 6Overread into Lead-In and Lead-Out          : NoFill up missing offset samples with silence : YesDelete leading and trailing silent blocks   : NoNull samples used in CRC calculations       : YesUsed interface                              : Native Win32 interface for Win NT & 2000Used output format              : User Defined EncoderSelected bitrate                : 1024 kBit/sQuality                         : HighAdd ID3 tag                     : NoCommand line compressor         : C:\Program Files\Exact Audio Copy\Flac\flac.exeAdditional command line options : -V -8 -T "Date=%year%" -T "Genre=%genre%" -T "Comment=Rip made RoxMan, Enjoy!" %source%TOC of the extracted CD     Track |   Start  |  Length  | Start sector | End sector    ---------------------------------------------------------        1  |  0:00.00 |  1:13.15 |         0    |     5489        2  |  1:13.15 |  3:31.57 |      5490    |    21371        3  |  4:44.72 |  3:28.43 |     21372    |    37014        4  |  8:13.40 |  3:20.62 |     37015    |    52076        5  | 11:34.27 |  3:29.15 |     52077    |    67766        6  | 15:03.42 |  3:25.60 |     67767    |    83201        7  | 18:29.27 |  3:21.38 |     83202    |    98314        8  | 21:50.65 |  3:10.07 |     98315    |   112571        9  | 25:00.72 |  3:34.60 |    112572    |   128681       10  | 28:35.57 |  3:28.18 |    128682    |   144299       11  | 32:04.00 |  3:20.37 |    144300    |   159336       12  | 35:24.37 |  5:30.38 |    159337    |   184124       13  | 40:55.00 |  5:09.62 |    184125    |   207361Range status and errorsSelected range     Filename D:\Magic Motion - The Magic Ride.wav     Peak level 100.0 %     Extraction speed 5.5 X     Range quality 100.0 %     Test CRC 838AF299     Copy CRC 838AF299     Copy OKNo errors occurredAccurateRip summaryTrack  1  not present in databaseTrack  2  not present in databaseTrack  3  cannot be verified as accurate (confidence 1)  [D4179C9B], AccurateRip returned [6740B987]  (AR v2)Track  4  not present in databaseTrack  5  cannot be verified as accurate (confidence 1)  [AD787916], AccurateRip returned [FFBE36ED]  (AR v2)Track  6  not present in databaseTrack  7  not present in databaseTrack  8  not present in databaseTrack  9  cannot be verified as accurate (confidence 1)  [0C6D8544], AccurateRip returned [E8E52021]  (AR v2)Track 10  not present in databaseTrack 11  cannot be verified as accurate (confidence 1)  [AB2EEE0A], AccurateRip returned [CE93D727]  (AR v2)Track 12  not present in databaseTrack 13  not present in database 4 track(s) could not be verified as accurate 9 track(s) not present in the AccurateRip databaseNo tracks could be verified as accurateYou may have a different pressing from the one(s) in the databaseEnd of status report==== Log checksum 4518ECB349E09B626A95C49D1DE37001FDEC5724A681DF83023FD4BF3F35CF06 ====

Tau Analyzer

PS: раздача с 18:00 до 23:30 (время московское).
Поддерживая раздачу, вы даёте возможность скачать её другим !

Для скачки контента: [Установить программу-клиент] и кликнуть по - СкачатьБезопасность: клиент проверен АВ Касперского

[privalsystems.ru].t493608.torrent 
Торрент: Зарегистрирован [ 2018-01-13 19:30 ] · 9136B06EF11252ECAE0F21A7D50C9322E9B733FB

Скачать .torrent

Скачать

17 KB

Статус: проверено
Скачан: 0 раз
Размер: 409 MB
terms.php
[Профиль] [ЛС]
Показать сообщения:    
Ответить на тему

Текущее время: 17-Окт 06:28

Часовой пояс: UTC ± 0



Вы не можете начинать темы
Вы не можете отвечать на сообщения
Вы не можете редактировать свои сообщения
Вы не можете удалять свои сообщения
Вы не можете голосовать в опросах
Вы не можете прикреплять файлы к сообщениям
Вы можете скачивать файлы