Roberto Carlos • Especial: Esse Cara [2017, Brazilian Pop Rock, HDTV, 1080i]

Ответить на тему
Статистика раздачи
Размер:  7,67 GB   |    Зарегистрирован:  9 месяцев 3 дня   |    Скачан:  0 раз

Полного источника не было: Никогда

 
   
 
 
Автор Сообщение

star21 ®

Пол: Женский

Стаж: 2 года 11 месяцев

Сообщений: 552946

Откуда: Екатеринбург

Создавать темы 13-Янв-2018 19:30

[Цитировать]

Roberto Carlos
Especial: Esse Cara Жанр: Brazilian Pop Rock
Продолжительность: 01:12:49
Год выпуска: 201701. Forca Estranha
02. Amigo
03. Emocoes
04. Sereia
05. Fera Ferida
06. E Precios Saber Viver
07. Amei De Te Ver
08. Falando Serio
09. Quando O Mel E Bom
10. Eu Te Amo, Eu Te Amo, Eu Te Amo
11. Concavo E Convexo
12. Petala
13. As Curvas Da Estrada De Santos
14. Esse Cara Sou Eu
15. Despacito
16. Luz Divina
Качество: HDTV
Разрешение видео/развертка: 1080i
Контейнер: TS
Видео кодек: H.264
Аудио кодек: AC3
Видео: MPEG4 Video (H264) 1920x1080 29.97fps 13.7 Mb/s
Аудио: Dolby AC3 48000Hz 6ch 640kbps

Отчёт MediaInfo / BDInfo

GeneralID                             : 1 (0x1)Complete name                  : L:\Roberto Carlos - Especial Esse Cara 2017.tsFormat                         : MPEG-TSFile size                      : 7.67 GiBDuration                       : 1 h 12 minOverall bit rate mode          : VariableOverall bit rate               : 15.1 Mb/sVideoID                             : 273 (0x111)Menu ID                        : 257 (0x101)Format                         : AVCFormat/Info                    : Advanced Video CodecFormat profile                 : High@L4Format settings, CABAC         : YesFormat settings, RefFrames     : 2 framesFormat settings, GOP           : M=3, N=15Codec ID                       : 27Duration                       : 1 h 12 minBit rate mode                  : VariableBit rate                       : 13.7 Mb/sMaximum bit rate               : 24.0 Mb/sWidth                          : 1 920 pixelsHeight                         : 1 080 pixelsDisplay aspect ratio           : 16:9Frame rate                     : 29.970 (30000/1001) FPSColor space                    : YUVChroma subsampling             : 4:2:0Bit depth                      : 8 bitsScan type                      : InterlacedScan type, store method        : Separated fieldsScan order                     : Top Field FirstBits/(Pixel*Frame)             : 0.220Stream size                    : 6.96 GiB (91%)Color range                    : LimitedColor primaries                : BT.709Transfer characteristics       : BT.709Matrix coefficients            : BT.709AudioID                             : 277 (0x115)Menu ID                        : 257 (0x101)Format                         : AC-3Format/Info                    : Audio Coding 3Format settings, Endianness    : BigCodec ID                       : 129Duration                       : 1 h 12 minBit rate mode                  : ConstantBit rate                       : 640 kb/sChannel(s)                     : 6 channelsChannel positions              : Front: L C R, Side: L R, LFESampling rate                  : 48.0 kHzFrame rate                     : 31.250 FPS (1536 SPF)Bit depth                      : 16 bitsCompression mode               : LossyStream size                    : 333 MiB (4%)Language                       : EnglishService kind                   : Complete Main

Для скачки контента: [Установить программу-клиент] и кликнуть по - СкачатьБезопасность: клиент проверен АВ Касперского

[privalsystems.ru].t493611.torrent 
Торрент: Зарегистрирован [ 2018-01-13 19:30 ] · 613C889A6B588071331595CC7786F7D4C67C990F

Скачать .torrent

Скачать

20 KB

Статус: проверено
Скачан: 0 раз
Размер: 7,67 GB
terms.php
[Профиль] [ЛС]
Показать сообщения:    
Ответить на тему

Текущее время: 17-Окт 06:27

Часовой пояс: UTC ± 0



Вы не можете начинать темы
Вы не можете отвечать на сообщения
Вы не можете редактировать свои сообщения
Вы не можете удалять свои сообщения
Вы не можете голосовать в опросах
Вы не можете прикреплять файлы к сообщениям
Вы можете скачивать файлы